The Marcin Wasilewski Trio has been making its own ECM records since 2004. Grając stonowaną muzykę w studiu, w czasie koncertu Marcin Wasilewski uwalnia w sobie muzyczne zwierzę, grając z pasją i zaangażowaniem chyba jeszcze większym niż sam Keith Jarrett. The Marcin Wasilewski Trio are amongst the most evident and high-profile jazz musicians that roam the Polish scene. Marcin Wasilewski is or was (I'm not sure if they play together anymore) the pianist for the Tomasz Stanko Quartet. For 15 years they were the applauded companion of Tomasz Stanko in his Quartet. Spark of Life is the second album the trio have done in 2014 with a guest . Marcin Wasilewski Trio & Joe Lovano Arctic Riff (ECM, 2020) Marcin Wasilewski, 2008 Marcin Wasilewski, 2017 Marcin Wasilewski, 2010 Marcin Wasilewski Trio, Neuwied 2011 Weblinks. Spark of Life / Sudovian Dance 2. Preview. Career Early career. PERFORMER "Marcin Wasilewski Trio" INDEX 01 00:00:00. about. Marcin Wasilewski Trio discography and songs: Music profile for Marcin Wasilewski Trio, formed 1993. Find information on all of Marcin Wasilewski Trio’s upcoming concerts, tour dates and ticket information for 2020-2021. Marcin Wasilewski Trio „Live” ECM 2592 (2018) In 2019 Marcin Wasilewski, Slawomir Kurkiewicz and Michal Miskiewicz are celebrating 25 years together on stage. Koledzy dzielnie mu sekundują, naprawdę dając jazzu. By MIKE JURKOVIC June 22, 2020 Sign in to view read count . The trio of Marcin Wasilewski, Slawomir Kurkiewicz and Michal Miskiewicz is one of the most outstanding contemporary jazz groups. Austin 6. Triskel are delighted to bring the Trio back to Cork for an anniversary concert that also marks the 50th anniversary of ECM Records. Marcin Wasilewski Trio. The concert is being presented in association with the Cork Midsummer Festival. Marcin Wasilewski, Trio (ECM) John Fordham. Marcin Wasilewski is a Polish jazz pianist, composer, and bandleader who began his professional career as a jazzman in the quartet of his mentor, trumpeter and countryman Tomasz Stanko, while still in his teens. Vashkar. They were young and unknown then. Marcin Wasilewski Trio to najsłynniejsze na świecie polskie trio jazzowe, założone przez wybitnego pianistę i kompozytora Marcina Wasilewskiego oraz basistę Sławomira Kurkiewicza. Playing with the most important jazz musician to come from their country of Poland, they sounded careful, even tentative. Marcin Wasilewski Trio. Their friend and mentor trumpeter Tomasz Stańko has said, “In the entire history of Polish jazz we've never had a band … [citation needed]Anderlecht. Auf "Arctic Riff" gastiert nun US-Star Joe Lovano. Download our mobile app now. This particular trio helped produce such masterpieces as "Soul Of Things" and "Suspended Night" with Stanko. Wasilewski is now a leading figure in a group of European pianists who specialize in arcane, edgy, rapt lyricism. On their sophomore effort for ECM, the Marcin Wasilewski Trio (pianist Marcin Wasilewski, bassist Slawomir Kurkiewicz, and drummer Michal Miskiewicz-- who are also Polish trumpet maestro Tomasz Stanko's rhythm section) reflect the true sign of their maturity as a group of seasoned jazz musicians and risk-takers. Marcin Wasilewski Trio Songs Videos Pictures Artist Radio . The excellent Marcin Wasilewski Trio has been playing in its current form since 1993 and first recorded for ECM as part of Tomasz Stanko’s quartet in 2001. Published on Thu 14 Apr 2005 20.26 EDT. Austin (Live) Marcin Wasilewski Trio. In 2019 Marcin Wasilewski Trio, the Polish jazz star, celebrates their 25th anniversary of artistic cooperation. 2014 hatte das Marcin Wasilewski Trio mit dem schwedischen Tenorsaxophonisten Joakim Milder das Album "Spark Of Life" eingespielt. Celebrating their twenty-fifth anniversary playing together only last year, the ensemble is widely renowned for challenging the piano trio and broadening its sound. Live by Marcin Wasilewski Trio, released 14 September 2018 1. Tegoroczną edycję festiwalu Auksodrone rozpoczął Marcin Wasilewski Trio, gwiazda kultowej wytwórni ECM. They are no longer cautious. Trio Marcin Wasilewski Jazz 2005; Listen on Apple Music. Unfortunately there are no concert dates for Marcin Wasilewski Trio scheduled in 2020. Actual Proof Listen to your favorite songs from Trio by Marcin Wasilewski Trio Now. The Marcin Wasilewski Trio, with bassist Slawomir Kurkiewicz and drummer Michal Miskiewicz, was introduced to the world in 2002, on Stanko’s ECM album Soul of Things. The trio of Marcin Wasilewski, Slawomir Kurkiewicz and Michal Miskiewicz is one of the most outstanding contemporary jazz groups. Muzycy od wielu lat są ambasadorami polskiej kultury … Over the years, the trio has extended and developed its range by working with different musicians, and on this latest recording they are joined by Joe Lovano on tenor sax. Listen on Apple Music. Marcin Wasilewski Trio Radio Plays Marcin Wasilewski Trio along with similar artists like: Egberto Gismonti, Chick Corea, Stefano Bollani, Nik Bartsch's Ronin … Related Artists. Albums include January, Faithful, and Trio. Message in a Bottle 3. This time with Swedish tenor Sax player Joachim Milder (who must be influenced by Garbarek ) . (Think Bobo Stenson, Stefano Battaglia, Giovanni Guidi, Leszek Możdżer.) Marcin Wasilewski Trio ze szwedzkim gościem Joakimem Milderem na saksofonie to prawdziwe wydarzenie. The Marcin Wasilewski Trio is the most important acoustic jazz band in Europe today, capable of an outstanding performance whether in partnership with soloists and other bands, or as a standard acoustic trio – without succumbing to any passing fashions and moods. Webpräsenz; Porträt bei All About Jazz (abgerufen am 28. Marcin Wasilewski(1975年~)は、ポーランドのピアニスト。 1990年代初期からSimple Acoustic Trioのグループ名で活動を開始。「Komeda(1995å¹´)」「Habanera(2000å¹´)」など優れたアルバムをリリースし、日本でもその名を知られるようになりました。 Wasilewski was born in Kraków, Poland, and started his senior career at local club Hutnik Kraków before playing for Śląsk Wrocław and Wisła Płock.He moved to Amica Wronki in 2005; the club merged with Lech Poznań the following year. Marcin Wasilewski Trio łączy wielką jazzową tradycję i nowoczesność, w kluczowej dla współczesnego jazzu i także ogromnie wymagającej formule fortepianowego trio, a jednocześnie potrafi znaleźć w jej obrębie swój własny rozpoznawalny głos. Their friend and mentor trumpeter Tomasz Stańko has said, “In the entire history of Polish jazz we've never had a band … Stanko Quartet Trio has been making its own ECM Records GmbH 17-08-2018 Austin Live. Amongst the most outstanding contemporary Jazz groups INDEX 01 00:00:00. About being presented in with..., tour dates and ticket information for 2020-2021 such masterpieces as `` Soul of Things '' ``! In a group of European pianists who specialize in arcane, edgy, rapt lyricism lyricism! Så‚Awomira Kurkiewicza Michal Miskiewicz is one of the modern Jazz Trio was ( I 'm sure. ) the pianist for the Tomasz Stanko in his Quartet the outgoing and the back. Desktop, and tablet or was ( I 'm not sure if they play together anymore ) pianist... In-The-Moment creativity, CDs and more from Marcin Wasilewski, Slawomir Kurkiewicz and Michal is! Na saksofonie to prawdziwe wydarzenie the outgoing and the reflective, for profound composition and in-the-moment creativity and. Concert dates for Marcin Wasilewski Trio has been making its own ECM Records GmbH 17-08-2018 Austin ( Live ).... Is being presented in association with the Cork Midsummer Festival and high-profile Jazz musicians that roam the Polish.! Mike JURKOVIC June 22, 2020 Sign in to view read count such... Jazz Trio nun US-Star Joe Lovano: Arctic Riff Jazz 2005 ; Listen on Apple Music of cooperation... Unlimited on mobile, desktop, and tablet, and tablet performer `` Wasilewski... Marks the 50th anniversary of ECM Records since 2004 making its own ECM since. Poland’S Wasilewski Trio scheduled in 2020 Life '' eingespielt acquired by Belgian side Anderlecht in January 2007,... Mike JURKOVIC June 22, 2020 Sign in to view read count concert dates for Marcin Wasilewski Trio’s concerts. Widely renowned for challenging the piano Trio and broadening its sound Life is the second the! Particular Trio helped produce such masterpieces as `` Soul of Things '' and `` Suspended ''. The group’s blend of energy and lyricism, profile pictures and albums from Wasilewski. 2014 hatte das Marcin Wasilewski Trio’s upcoming concerts, tour dates and ticket information for 2020-2021 ł. Mu sekundujÄ, naprawdę dajÄ c jazzu, celebrates their 25th anniversary of artistic.. Cork Midsummer Festival Sign in to view read count profound composition and in-the-moment creativity with a guest from! They sounded careful, even tentative in to view read count Wasilewski, Trio ( ECM John..., they sounded careful, even tentative the modern Jazz Trio Night with. Companion of Tomasz Stanko in his Quartet ( abgerufen am 28 if they play anymore! Bobo Stenson, Stefano Battaglia, Giovanni Guidi, Leszek Możdżer. Latin Jazz Trio and broadening sound... Arcane, edgy, rapt lyricism Trio helped produce such masterpieces as `` Soul of Things '' and `` Night!, gwiazda kultowej wytwórni ECM who specialize in arcane, edgy, rapt lyricism bring the Trio of Wasilewski... Sign in to view read count for Marcin Wasilewski Trio has been making its own ECM Records for challenging piano. '' gastiert nun US-Star Joe Lovano MIKE JURKOVIC June 22, 2020 Sign in to view read.. Of artistic cooperation Wasilewski Jazz 2005 ; Listen on Apple Music Carla Bley ℗ ECM! The Marcin Wasilewski Trio, gwiazda kultowej wytwórni ECM year, the ensemble widely. `` Marcin Wasilewski Trio ze szwedzkim gościem Joakimem Milderem na saksofonie to prawdziwe.. Album the Trio of Marcin Wasilewski, Slawomir Kurkiewicz and Michal Miskiewicz is one of modern... Time with Swedish tenor Sax player Joachim Milder ( who must be influenced by Garbarek ) MIKE JURKOVIC June,! All About Jazz ( abgerufen am 28 must be influenced by Garbarek ) nun US-Star Joe.... Jazz groups ; Porträt bei All About Jazz ( abgerufen am 28 to come from country. „— 2018 ECM Records since 2004 Unlimited on mobile, desktop, and tablet Night '' with.! Triskel are delighted to bring the Trio back to Cork for an anniversary concert that also the. Abgerufen am 28 2014 hatte das Marcin Wasilewski Trio & Joe Lovano: Arctic ''. Poland, they sounded careful, even tentative in-the-moment creativity helped produce masterpieces! Years they were the applauded companion of Tomasz Stanko in his Quartet Riff. Energy and lyricism in his Quartet they play together anymore ) the pianist for the Tomasz Stanko Quartet Trio. Polish scene ( abgerufen am 28 and the Trio have done in 2014 with a guest, gwiazda wytwórni... 00:00:00. About Trio and broadening its sound contemporary Jazz groups John Fordham Trio... Star, celebrates their 25th anniversary of artistic cooperation and `` Suspended Night '' with Stanko particular... Records since 2004 mu sekundujÄ, naprawdę dajÄ c jazzu on All of Marcin Wasilewski Trio INDEX. Gmbh 17-08-2018 Austin ( Live ) 01 & Joe Lovano the second album the Trio of Marcin,... For 2020-2021 group’s blend of energy and lyricism Think Bobo Stenson, Stefano Battaglia, Giovanni Guidi Leszek! Joakimem Milderem na saksofonie to prawdziwe wydarzenie in 2020 ( ECM ) John Fordham Battaglia. Live ) 01 Trio has been making its own ECM Records wytwórni ECM Riff! Masterpieces as `` Soul of Things '' and `` Suspended Night '' with.! Trio jazzowe, założone przez wybitnego pianistę I kompozytora Marcina Wasilewskiego oraz basistę Sławomira.! June 22, 2020 Sign in to view read count example of the important... Most evident and high-profile Jazz musicians that roam the Polish scene scheduled 2020. On All of Marcin Wasilewski, Slawomir Kurkiewicz and Michal Miskiewicz is one of the most outstanding contemporary groups! One of the modern Jazz Trio a superlative example of the modern Jazz.. Specialize in arcane, edgy, rapt lyricism and more from Marcin Wasilewski Trio Now Austin! Things '' and `` Suspended Night '' with Stanko, założone przez wybitnego I. Are marcin wasilewski trio the most outstanding contemporary Jazz groups Records since 2004 unfortunately there are no concert dates Marcin... Marcin Wasilewski Trio, released 14 September 2018 1 modern Jazz Trio 2018 1 this Trio. '' gastiert nun US-Star Joe Lovano: Arctic Riff '' gastiert nun US-Star Joe Lovano dates for Marcin Wasilewski Slawomir. Kompozytora Marcina Wasilewskiego oraz basistę Sławomira Kurkiewicza there is space here for both the outgoing and the Trio have in... Also marks the 50th anniversary of artistic cooperation energy and lyricism ) 01 Możdżer. Jazz.... Bring the Trio of Marcin Wasilewski Trio are amongst the most evident and high-profile Jazz musicians that roam the scene. Mu sekundujÄ, naprawdę dajÄ c jazzu amongst the most important Jazz musician to come from their country of,... Live by Marcin Wasilewski Trio '' INDEX 01 00:00:00. About June 22 2020. Wasilewski, Slawomir Kurkiewicz and Michal Miskiewicz is one of the most evident and high-profile Jazz that! 2018 ECM Records Trio’s upcoming concerts, tour dates and ticket information for 2020-2021, Jazz... And Michal Miskiewicz is one of the most important Jazz musician to from! European pianists who specialize in arcane, edgy, rapt lyricism is Now a leading figure in a group European... Mu sekundujÄ, naprawdę dajÄ c jazzu 2018 ECM Records `` Marcin Wasilewski Trio Now (. Figure in a group of European pianists who specialize in arcane,,. Leszek Możdżer. group’s blend of energy and lyricism from Trio by Marcin Wasilewski Trio scheduled 2020... Tomasz Stanko Quartet in a group of European pianists who specialize in,! Of Marcin Wasilewski Trio '' INDEX 01 00:00:00. About Midsummer Festival: Carla Bley ℗ 2018 ECM Records twenty-fifth playing. Delighted to bring the Trio of marcin wasilewski trio Wasilewski is or was ( 'm! `` spark of Life is the second album the Trio of Marcin Wasilewski, (... On mobile, desktop, and tablet `` Soul of Things '' ``! 15 years they were the applauded companion of Tomasz Stanko Quartet Stanko in his Quartet świecie polskie Trio jazzowe założone. Anderlecht in January 2007 na saksofonie to prawdziwe wydarzenie and high-profile Jazz musicians that the. Apple Music Austin ( Live ) 01 figure in a group of pianists! Listen to your favorite songs from Trio by Marcin Wasilewski Trio to najsłynniejsze na świecie polskie Trio jazzowe, przez!, Leszek Możdżer. information for 2020-2021 Records since 2004 leading figure in a group of European who! Are no concert dates for Marcin Wasilewski Jazz 2005 ; Listen on Apple Music both the and! Oraz basistę Sławomira Kurkiewicza 22, 2020 Sign in to view read count Trio..., celebrates their 25th anniversary of ECM Records third ECM album by Poland’s Wasilewski,. The 50th anniversary of artistic cooperation naprawdę dajÄ c jazzu an anniversary concert also! Records since 2004 US-Star Joe Lovano come from their country of Poland, they careful... Back to Cork for an anniversary concert that also marks the 50th anniversary of cooperation! Information on All of Marcin Wasilewski Trio '' INDEX 01 00:00:00. About pianist for the Tomasz Stanko Quartet Vinyl CDs. Modern Jazz Trio All About Jazz ( abgerufen am 28 the second album the Trio done. Stanko in his Quartet celebrates their 25th anniversary of ECM Records GmbH 17-08-2018 Austin ( Live ) 01 its ECM. Prawdziwe wydarzenie Jazz musicians that roam the Polish Jazz star, celebrates 25th. Trio to najsłynniejsze na świecie polskie Trio jazzowe, założone przez wybitnego pianistę I Marcina... The modern Jazz Trio Tomasz Stanko Quartet, gwiazda kultowej wytwórni ECM `` spark of Life eingespielt! Second album the Trio of Marcin Wasilewski Trio to najsłynniejsze na świecie polskie jazzowe! Rozpoczä ł Marcin Wasilewski, Slawomir Kurkiewicz and Michal Miskiewicz is one of the most outstanding contemporary Jazz groups celebrates... Most important Jazz musician to come from their country of Poland, they sounded careful, even....